#TITLE:Inside the Winter Storm;
#SUBTITLE:;
#ARTIST:DragonForce;
#TITLETRANSLIT:;
#SUBTITLETRANSLIT:;
#ARTISTTRANSLIT:;
#CREDIT:;
#BANNER:banner.png;
#BACKGROUND:bg.jpg;
#LYRICSPATH:;
#CDTITLE:cd.png;
#MUSIC:DragonForce - Inside the Winter Storm.mp3;
#OFFSET:-0.126;
#SAMPLESTART:136.579;
#SAMPLELENGTH:18.960;
#SELECTABLE:YES;
#BPMS:0.000=200.000,528.000=100.000,584.000=200.000,740.000=140.000,932.000=200.000;
#STOPS:;
#BGCHANGES:;
// cache tags:
#FIRSTBEAT:0.000;
#LASTBEAT:1492.000;
#SONGFILENAME:Songs/Music V.I.P ^_^/Inside the Winter Storm/Inside the Winter Storm.sm;
#HASMUSIC:1;
#HASBANNER:1;
#MUSICLENGTH:491.629;
// end cache tags

//---------------dance-single - ----------------
#NOTES:
     dance-single:
     :
     Challenge:
     15:
     1.000,1.000,0.702,1.000,1.000,3730.000,345.000,575.000,0.000,146.000:
1100
1100
0001
0000
0010
0000
0100
0000
,
0001
0001
0010
0001
0010
0100
1000
0100
,
1100
1100
0010
0000
0001
0000
0100
0000
,
0010
0001
0001
0010
0001
0100
1100
1100
,
1100
0100
0010
0021
,
0001
0001
0100
0001
0100
1000
1032
1000
,
2103
0000
0100
0010
0001
0010
0100
0010
,
3201
0010
1000
0010
0001
0010
1000
0010
1000
0010
0001
0010
1301
0000
1001
0000
,
1001
0000
0000
0000
,
0001
0010
0100
0001
0100
0010
0001
0000
0001
0010
0100
0001
0100
0010
0001
0010
,
2100
3001
0100
0001
0010
0100
1000
0001
0100
0010
0100
0001
1000
0001
0100
0010
,
2100
3001
0100
0001
1000
0001
1200
0310
1000
0100
0010
0001
0100
0001
0100
0010
,
2100
3001
0100
0001
1000
0010
1000
0001
0100
0010
0100
0001
0010
0100
1000
0001
,
1100
0011
1100
0001
1020
0031
1200
0301
1010
0101
1010
0001
0120
1030
0201
0310
,
2001
3010
0100
1000
0100
0001
0100
0010
1000
0001
0100
0001
1000
0001
0100
0010
,
2100
3001
0100
0010
1000
0010
1200
0301
1000
0100
0010
0001
0100
0001
1000
0010
,
2100
0000
0010
3000
0001
0000
0010
0000
0100
0000
0010
0000
0001
0000
1000
0000
0100
0000
0010
0000
0001
0000
0010
0000
0100
0000
1000
0000
0100
0000
1000
0000
0001
0000
0010
0000
0100
0000
1000
0000
0100
0000
0010
0000
0001
0000
1000
0000
,
0022
0003
0032
0000
2203
3000
2300
0000
3220
0300
0230
0000
0322
0030
0023
0000
,
2031
3010
0100
1000
0100
0010
0100
0001
0100
0010
1000
0001
1000
0001
0100
0010
,
1002
0013
0100
1000
0100
0001
1200
0310
1000
0100
0010
0001
0100
0001
0100
0010
,
0100
0000
0100
0001
0100
0001
0100
0001
0100
0000
0100
0001
0100
0001
0100
0001
,
0110
1100
0011
0000
1020
0030
1200
0300
1010
0101
1010
0000
0120
0030
0201
0300
,
2001
3010
0100
1000
0100
0001
0100
0010
1000
0001
0100
0001
1000
0001
0100
0010
,
1002
0013
0100
0001
1000
0010
1200
0301
1000
0100
0010
0001
0100
0001
1000
0010
,
0102
0003
0002
0003
0002
0003
0020
0030
0020
0030
0020
0030
0200
0300
2000
3000
,
0102
0010
1000
0100
2013
0100
0001
0010
3201
0010
1000
0001
1320
0001
0100
0001
,
1130
0000
0000
0000
,
0000
0000
0000
0000
,
0000
0000
0000
0000
,
0000
0000
0000
0000
,
2002
0000
0000
0000
,
0000
0000
0000
0000
,
0000
0000
0000
0000
3103
0010
0100
0010
,
0100
0010
0100
0010
0100
0010
0100
0010
,
0001
0010
0100
0001
0100
0010
0001
0010
0001
0100
0010
0100
0001
0010
0100
0010
,
1000
0100
0001
0001
0001
0001
1000
0010
0001
0001
0001
0001
1000
1000
1000
1000
,
0011
0011
0000
0000
,
0000
0000
0000
0000
,
1002
0010
0103
0010
1000
0001
0010
0100
1000
0001
0100
0010
0001
0010
0100
0001
,
2100
0010
3001
0010
0100
1000
0012
0100
0013
1000
0001
0100
1001
0110
1010
0101
,
0210
0001
1300
0010
1000
0010
0100
0001
1000
0100
0010
0001
0100
0001
0100
0001
,
1020
0100
1030
0001
2100
0010
3100
0001
1020
0031
2100
3010
0102
0010
1003
0010
,
2001
0000
0001
0000
0100
0001
0100
0000
0010
0000
0010
0000
0001
0010
0001
0000
,
0100
0000
0100
0000
0010
0100
0010
0000
0001
0000
0001
0000
3210
0301
0010
0000
,
1200
0000
0010
0001
0010
0001
0010
0000
1000
0001
0010
0001
0010
0001
0010
0000
,
1302
0013
1000
0000
1020
0130
1000
0000
0210
0301
0010
0000
0102
1023
0231
2310
,
3201
0010
1300
0010
0100
0001
1000
0100
0010
0001
0100
0010
1000
0001
1000
0010
,
0201
1000
0301
1000
0001
0100
0021
1000
0130
0001
1000
0010
0101
1010
1001
0110
,
2001
0100
3001
0100
0001
0010
0100
1000
0010
0100
0001
1000
0001
0100
0010
1000
,
0012
1000
0013
1000
0210
0001
0310
0001
1200
0301
1020
0031
1200
0310
2001
3010
,
0201
0000
0000
0000
,
0000
0000
0000
0000
,
1320
0130
1000
0100
1000
0100
1002
0103
1000
0100
1000
0100
1020
0130
1000
0100
,
1002
0023
0230
2300
3201
0300
2001
3000
0200
0300
1020
0030
1002
0003
0200
0300
,
0001
0010
0100
0010
0100
0010
0001
1000
0100
0010
0001
0010
0100
0010
0001
0010
,
0001
0010
0100
0010
0100
0010
0001
1000
0100
0010
0001
0010
0100
0010
0001
0010
,
1000
0100
0010
0100
0010
0100
1000
0001
0010
0100
1000
0100
0010
0100
1000
0100
,
1000
0000
0000
0000
0100
0000
0000
0000
0010
0000
0000
0000
0100
0000
0000
0000
0010
0000
0000
0000
0100
0000
0000
0000
1000
0000
0000
0000
0001
0000
0000
0000
0020
0030
0000
0000
0200
0300
0000
0000
2000
3000
0000
0000
0200
0300
0000
0000
0020
0030
0000
0000
0200
0300
0000
0000
2000
3000
0000
0000
0200
0300
0000
0000
,
0001
0000
0000
0000
0010
0000
0000
0000
0100
0000
0000
0000
0010
0000
0000
0000
0100
0000
0000
0000
0010
0000
0000
0000
0001
0000
0000
0000
1000
0000
0000
0000
0200
0300
0000
0000
0020
0030
0000
0000
0002
0003
0000
0000
0020
0030
0000
0000
0200
0300
0000
0000
0020
0030
0000
0000
0200
0300
0000
0000
0020
0030
0000
0000
,
0001
0000
0000
0000
0010
0000
0000
0000
0100
0000
0000
0000
0010
0000
0000
0000
0100
0000
0000
0000
0010
0000
0000
0000
0001
0000
0000
0000
1000
0000
0000
0000
0200
0300
0000
0000
0020
0030
0000
0000
0002
0003
0000
0000
0020
0030
0000
0000
0002
0003
0000
0000
0020
0030
0000
0000
0002
0003
0000
0000
0020
0030
0000
0000
,
1000
0100
0010
0100
0010
0100
1000
0001
0010
0100
1000
0100
0010
0100
1000
0100
,
0001
0010
0100
0010
0100
1000
0100
0010
0001
0010
0100
0010
0100
1000
0100
0010
,
0002
1000
0013
0100
0001
1000
0010
0100
0001
0010
0100
1000
0100
0001
1000
0001
,
0210
1000
0310
0001
1000
0010
2100
0001
3010
0100
1000
0010
0102
1000
0123
1000
,
0231
1000
0301
0010
0100
1000
0010
1000
0001
0100
0001
1000
0010
0100
0001
1000
,
0200
0300
0200
0300
2000
3000
0200
0300
0002
0000
0023
0030
0200
0300
0200
0300
,
0201
0000
0001
0000
1000
0010
1000
0000
0001
0000
0001
0000
1000
0010
1000
0000
,
0010
0000
0010
0000
0001
1000
0001
0000
1000
0000
1000
0000
0312
1000
0010
0000
,
0123
1000
0100
1000
0100
0000
0000
0000
0001
0100
0001
0100
2031
3000
2000
3000
,
0201
0010
0001
0010
0001
0010
0001
0010
0301
0010
0001
0010
0100
1000
0100
0010
,
0201
0010
1300
0001
0100
0001
1000
0010
0100
0001
1000
0001
0100
0010
1000
0100
,
2010
0001
3100
0001
1000
0001
1020
0001
0130
0001
1000
0010
1100
0011
1010
0101
,
2001
0010
3100
0001
1000
0001
0010
0100
1000
0001
0100
0001
1000
0010
0100
0001
,
2000
0000
3000
0000
2000
3000
2000
3000
0200
0300
0200
0300
0020
0030
0002
0003
,
2100
0000
0100
0000
0010
0100
0010
0000
0001
0000
0001
0000
0010
0100
0010
0000
,
0001
0000
0001
0000
0010
0100
0010
0000
0100
0000
0100
0000
0001
0010
0001
0000
,
3011
0100
0010
0100
0011
0000
0011
0100
0010
0100
0011
0000
0011
0100
0010
0100
,
0011
0010
0100
1000
0001
0010
0100
1000
,
0120
1000
0100
1000
0102
1000
0100
1000
0100
1000
0100
1000
0100
1000
0100
1000
,
0100
1000
0100
1000
0100
1000
0100
1000
0100
1000
0100
1000
0100
1000
0100
1000
,
2133
0010
0100
0001
0100
0010
3201
0010
1000
0001
1000
0001
1320
0001
0100
1000
,
0132
0010
0100
0010
0103
1000
0102
1000
0103
0010
0102
0010
0100
1000
0103
1000
,
0210
0000
0010
0000
0001
1000
0321
0000
1000
0000
1000
0000
0132
1000
0100
0000
,
2103
0000
0100
0000
0001
0100
3021
0000
0100
0000
0100
0000
0132
1000
0100
0000
,
2103
0000
0100
0000
0010
0001
3210
0000
1000
0000
1000
0000
0321
1000
0001
0000
,
2130
0001
0100
0001
0100
0001
3120
1000
0100
1000
0100
1000
0132
0010
0100
0010
,
2003
3000
0001
0000
0001
0000
0200
0300
0001
0000
0001
0000
0020
0030
0001
0000
,
0200
0300
0001
0000
0001
0000
0020
0030
0001
0000
0001
0000
0200
0300
0001
0000
,
2000
0000
0000
0000
,
3200
0000
0001
0010
0001
0010
0001
0000
0001
0010
0001
0010
0001
0010
0001
0000
,
0311
0000
0000
0000
,
1001
0000
0000
0000
,
0110
0110
0110
0110
,
0110
0110
0110
0000
,
1200
0001
1000
0010
1000
0001
1000
0010
1000
0001
1000
0010
1000
0001
1000
0010
,
2301
0010
0100
0001
0100
0010
0001
0100
0001
0010
0100
0001
0100
0010
0001
0100
,
3021
0100
0001
1000
0001
0100
0001
1000
0001
0100
0001
1000
0001
0100
0001
1000
,
0132
0000
0100
0010
0100
0010
0100
0000
0100
0010
0100
0010
0100
0010
0100
0000
,
0023
0030
1000
0000
1000
0000
0020
0030
1000
0000
1000
0000
0002
0003
1000
0000
,
0020
0030
1000
0000
1000
0000
0200
0300
1000
0000
1000
0000
0001
0010
0100
0010
,
0002
0003
0020
0030
0020
0030
0002
0003
0020
0030
0020
0030
0100
0010
0001
0010
,
0002
0003
0020
0030
0020
0030
0200
0300
2000
3000
2000
3000
0200
0300
0020
0030
,
1200
0000
1000
0000
0010
0001
0010
0000
0001
0000
0001
0000
0010
1000
0010
0000
,
2301
0000
0001
0000
0100
0001
0100
0000
0010
0000
0010
0000
0001
0100
0001
0000
,
3120
0000
0100
0000
1000
0001
1000
0000
0100
0000
0100
0000
0001
0100
0001
0000
,
1032
0000
1000
0000
0100
0010
0100
0000
1000
0000
1000
0000
0100
0010
0100
0000
,
1103
1100
0000
0000
0000
0000
0000
0000
,
0000
0000
0000
0000
,
2002
0000
0000
0000
,
0000
0000
0000
0000
,
3113
0000
0000
0000
,
0000
0000
0000
0000
,
0000
0000
0000
0000
,
1002
0000
0000
0000
,
2103
0001
0010
0100
0001
0100
0001
0010
0100
0001
0100
0010
0001
0100
0001
0010
,
0100
0001
0100
0010
0100
0001
0100
0001
0010
0100
0001
0100
3021
0130
1000
0001
,
0210
0001
1000
0010
1000
0001
1000
0010
1000
0001
0010
1000
0001
1000
0010
0001
,
1000
0001
1000
0010
0001
1000
0001
0010
0001
1000
0010
0001
2310
3001
0010
0100
,
0012
1000
0010
1000
0100
1000
0010
0100
0010
1000
0100
0010
1000
0010
0100
1000
,
0010
0100
0010
1000
0100
0010
1000
0100
1000
0010
0100
1000
0010
1000
0100
0010
,
2103
0010
3100
0010
0100
0010
2100
0010
3100
0010
0100
0010
0100
0010
0100
0010
,
2100
0010
3100
0000
0100
0000
2100
0010
3100
0010
0100
0010
0100
0010
0100
0000
,
2001
0000
0001
0000
0100
0010
0100
0000
0010
0000
0010
0000
0001
0100
0001
0000
,
0010
0000
0010
0000
0100
0010
0100
0000
0001
0000
0001
0000
3210
0001
0010
0000
,
0321
0000
0001
0000
0100
1000
0100
0000
0001
0000
0001
0000
1000
0100
1000
0000
,
0001
0000
0001
0000
0100
0001
0100
0000
1000
0000
1000
0000
0231
1000
0001
0000
,
1320
0000
1000
0000
0001
0100
0001
0000
0100
0000
0100
0000
1000
0001
1000
0000
,
0001
0000
0001
0000
0100
1000
0100
0000
0001
0000
0001
0000
1000
0100
1000
0000
,
1032
0100
0013
0100
0010
0100
1002
0100
0013
0100
0010
0100
0010
0100
0010
0100
,
1002
0010
0103
0010
1000
0100
0012
0100
1003
0010
0100
0010
1000
0100
0010
0100
,
1002
0003
0000
0000
0000
0000
0000
0000
,
0000
0000
0000
0000
,
2000
3000
2000
3000
0200
0300
0220
0000
0000
0330
0022
0000
0000
0000
0033
0000
,
2000
3000
0200
0300
0020
0030
0002
0000
0003
0000
0002
0003
0001
0010
0100
1000
,
2000
3000
0200
0300
0020
0030
0220
0000
0000
0330
0022
0000
0000
0033
2000
3000
,
2000
3000
0200
0300
0020
0030
0002
0003
0001
0010
0100
1000
0200
0300
2000
3000
,
2000
3000
0200
0300
0020
0030
0022
0000
0000
0033
0220
0000
0000
0330
2000
3000
,
0200
0300
0100
0010
0001
0010
0100
1000
0100
0010
0001
0010
0100
1000
0100
0010
,
2000
3000
0200
0300
0020
0030
0022
0000
0000
0033
0002
0003
0022
0000
0000
0033
,
2000
3000
0200
0000
0000
0300
0020
0030
0001
0010
0100
1000
0100
0010
0001
0010
,
0200
0300
0020
0030
1000
0100
0010
0001
0020
0030
0200
0300
2000
0000
0000
3000
,
0200
0300
0020
0030
0001
0010
0100
1000
0200
0300
2000
0000
3000
0020
0000
0030
,
0200
0300
2000
3000
0100
0010
0001
0010
0001
0010
0100
1000
0001
0010
0100
1000
,
2000
3000
0020
0030
1000
0100
0010
0100
1000
0100
0010
0001
0010
0100
2000
3000
,
0220
0000
0000
0000
0000
0330
0200
0300
2000
0000
0000
3000
2000
0000
0000
3000
,
0220
0000
0000
0000
0000
0000
0330
0000
2000
0000
3000
0200
0000
0300
0020
0030
,
0011
0000
0011
0011
0011
0011
0011
0011
,
0011
0011
0011
0011
0011
0011
0011
0011
,
0011
0000
0000
0000
,
1010
0000
0000
0000
,
0201
0010
1000
0001
0010
0001
0010
1000
0001
0010
0001
1000
0010
0001
0010
1000
,
0001
0010
0001
1000
0001
0010
0001
0010
1000
0001
0010
0001
2310
3001
0100
0010
,
2001
0100
0010
0001
0010
0100
0010
0001
0010
0100
0001
0010
0100
0010
0001
0100
,
0010
0100
0010
0001
0100
0010
0100
0001
0100
0010
0001
0100
3021
0130
1000
0010
,
0102
1000
0010
1000
0100
1000
0010
0100
0010
1000
0100
0010
1000
0010
0100
1000
,
0010
0100
0010
1000
0100
0010
1000
0100
1000
0010
0100
1000
0010
1000
0100
0010
,
2103
0010
3100
0010
1100
0000
2100
0010
3100
0010
1100
0000
1100
0010
0100
0010
,
2100
0001
3100
0001
0100
0010
0102
0010
1003
0010
1000
0010
1000
0100
1000
0100
,
1002
0000
1000
0000
0010
0100
0010
0000
0100
0000
0100
0000
1000
0010
1000
0000
,
0100
0000
0100
0000
0010
0100
0010
0000
0100
0000
0100
0000
1203
0010
1000
0000
,
2310
0000
0010
0000
0001
0100
0001
0000
0010
0000
0010
0000
0100
0001
0100
0000
,
0010
0000
0010
0000
0001
0010
0001
0000
0100
0000
0100
0000
3012
0100
0010
0000
,
2103
0000
0100
0000
0010
0001
0010
0000
0001
0000
0001
0000
0100
0010
0100
0000
,
0010
0000
0010
0000
0001
0100
0001
0000
0010
0000
0010
0000
0100
0001
0100
0000
,
3012
0100
0013
0100
0010
0100
1002
0100
0013
0100
0010
0100
0010
0100
0010
0100
,
1002
0010
0103
0010
1000
0100
0012
0100
1003
0010
0100
0010
1000
0100
0010
0100
,
1002
0000
1000
0000
0100
0010
0100
0000
0010
0000
0010
0000
1000
0100
1000
0000
,
0100
0000
0100
0000
1000
0010
1000
0000
0100
0000
0100
0000
0010
1000
0010
0000
,
1203
0000
1000
0000
0001
1000
0001
0000
0010
0000
0010
0000
1000
0010
1000
0000
,
0321
0000
0001
0000
1000
0100
1000
0000
0100
0000
0100
0000
0001
1000
0001
0000
,
1030
0001
0100
0010
1000
0001
1000
0010
0100
0001
1000
0001
0100
0010
0100
0001
,
2000
3000
0100
0001
1000
0100
0010
0001
1000
0001
1000
0010
0100
0001
0100
0010
,
2001
0010
3100
0010
0001
0010
0100
0010
0001
0010
0100
0010
0001
0010
0100
0010
,
0100
0010
0001
0010
0100
0010
0002
0013
,
2001
0000
0001
0000
0010
0100
0010
0000
0100
0000
0100
0000
0001
0010
0001
0000
,
0010
0000
0010
0000
0001
0100
0001
0000
0010
0000
0010
0000
0100
0001
0100
0000
,
3021
0000
0001
0000
1000
0001
1000
0000
0100
0000
0100
0000
0001
0100
0001
0000
,
1230
0000
1000
0000
0001
0010
0001
0000
0010
0000
0010
0000
1000
0001
1000
0000
,
0301
1000
0010
0100
0001
1000
0010
1000
0001
0100
0010
1000
0001
0100
0001
1000
,
0010
0001
0010
0001
0100
0001
0100
0001
1000
0010
1000
0010
1000
0100
1000
0100
,
1001
1001
0000
0000
,
0110
0000
0000
0000
,
1000
0100
0010
0000
0001
0000
0000
0000
0011
0000
0011
0000
0000
0000
0011
0000
,
0011
0000
0000
0000
,
0000
0000
0000
0000
,
0020
0000
0000
0230
0000
0000
2300
0000
,
3002
0000
0000
0000
0000
0000
0000
0000
0000
0000
0000
0000
0000
0000
0103
0010
,
0002
0000
0000
0023
0000
0000
0230
0000
,
1300
0010
2000
0000
0000
0000
0000
0000
0000
0000
0000
0000
0000
0000
0000
0000
,
3020
0000
0000
0230
0000
0000
2300
0000
,
3002
0000
0003
0000
0000
0000
0000
0000
0020
0000
0030
0000
0000
0000
0000
0000
0200
0000
0300
0000
0000
0000
0000
0000
0020
0000
0000
0000
0000
0000
0000
0000
0000
0000
0000
0000
0000
0000
0000
0000
0000
0000
0031
0000
0000
0100
0000
0000
,
0002
0000
0000
0023
0000
0000
0230
0000
,
1300
0010
2000
0000
0000
0000
0000
0000
0000
0000
0000
0000
0000
0000
0000
0000
,
3200
0300
0200
0300
0200
0300
0100
1000
0100
0000
0010
0000
0000
0000
0000
0000
,
0002
0003
0000
0000
0000
0000
0010
0000
0000
0000
0000
0000
0100
0000
0000
0000
0000
0000
2000
0000
0000
0000
0000
0000
0000
0000
0000
0000
0000
0000
0000
0000
,
0000
3000
0001
0010
0100
0000
1000
0000
0010
0000
0001
0000
0000
0000
0200
0300
,
0000
2000
0000
0000
0000
0000
0000
0000
,
3000
0000
0000
0000
0002
0003
0002
0003
0000
0000
0200
0300
0000
0000
2000
3000
,
0000
0000
0002
0003
0000
0000
1000
0100
0020
0030
0002
0000
0000
0000
0000
0000
,
0000
0000
1003
0100
0001
0100
1000
0100
0001
0100
1000
0100
0002
0000
0000
0000
,
1003
0000
0000
0100
0000
0000
0010
0000
0000
0001
0000
0000
0010
0000
0001
0000
0010
0000
0100
0000
1000
0000
0100
0000
0010
0000
0000
0001
0000
0000
0010
0000
0000
0100
0000
0000
1000
0000
0000
0000
0000
0000
0010
0000
0000
0000
0000
0000
,
2021
0100
0100
0001
,
0001
0100
0001
0100
,
3001
0100
1000
0001
,
1000
0000
0000
0000
0100
0000
0000
0000
0100
0000
0001
0100
0001
0000
0100
0000
,
2231
0001
0010
0001
,
3010
0000
0010
0000
1000
0000
0001
1000
,
2321
0001
0132
0100
,
3010
0000
0000
0000
0100
0000
0010
0000
0100
0000
0010
0000
0100
0000
0010
0100
1000
0000
0010
0000
1000
0000
0010
0000
1000
0000
0010
0000
1000
0000
0010
0000
,
2103
0010
0100
0010
0100
3010
2100
0001
0100
0001
0100
3001
2010
0001
0010
3001
,
0120
1000
0100
1000
0100
1030
0120
0001
0100
0001
0100
0031
1020
0100
1000
0130
,
1002
0010
1000
0010
1000
0013
0102
0010
0100
0010
0100
0013
0102
1000
0100
1003
,
0210
1000
0010
1000
0010
1000
0010
0001
0010
0001
0010
0001
1000
0001
1000
0001
,
0310
0001
0010
0001
0010
0001
0100
0010
0100
0010
0100
0010
1000
0100
1000
0100
,
1000
0001
1000
0001
1000
0001
0100
0010
0100
0010
0100
1000
0100
0010
0001
0010
,
0100
1000
0100
1000
0100
1000
0001
0010
0001
0010
0001
0010
1000
0010
1000
0010
,
1000
0001
1000
0001
1000
0001
0100
0010
0100
0010
0100
1000
0100
0010
0001
0010
,
0002
0000
0000
0000
,
0000
0000
0000
0203
,
0302
0000
0000
0203
0000
0000
2300
0000
,
0000
0000
0000
0000
,
0000
0000
3020
0032
0000
0000
0203
0000
,
0000
0320
0000
0000
0032
0000
0023
0000
,
0230
0000
0000
0000
0000
0000
2300
0000
0000
0000
0000
3000
2000
0000
0000
0000
,
0100
0000
0000
0000
0000
0000
0100
0000
0010
0000
0100
0000
0010
0000
0100
0000
0000
0000
0000
0000
0000
0100
0000
0000
0010
0000
0000
0000
0000
0000
0100
0000
0000
0000
0000
0000
0100
0000
0000
0010
0000
0000
0100
0000
0000
0000
0000
0000
,
3020
0000
0000
0000
,
0000
0000
0000
0230
,
0302
0000
0000
0203
0000
0000
0320
2030
,
0000
0000
0000
0000
,
3200
0000
0000
0302
0000
0000
2003
0000
,
0000
3020
0000
0000
0032
0000
2003
0000
,
3020
0000
0000
0230
0000
0000
0320
0000
,
0000
0032
0000
0023
0032
0023
0230
0000
,
0311
0100
0001
0100
0011
0100
1000
1001
,
0100
0010
0011
0000
1100
1010
1001
0000
,
1100
0000
0000
0001
0000
0000
0010
0000
0000
0100
0000
0000
1100
0010
0001
0010
0100
1000
0100
0010
0001
1010
0001
0010
,
0100
1000
0100
0010
0001
0010
1100
0010
0001
0010
0100
1000
0101
0000
0000
0101
0000
0000
0011
0000
0000
0000
0000
0000
,
2010
0001
0010
0001
0010
0001
0010
0001
0100
0001
0100
0001
0100
0001
0100
0001
,
0100
0010
0001
0001
0001
0001
0100
0010
0001
0001
0001
0001
0100
0010
0100
0010
,
3201
0000
0001
0000
0001
1000
0001
0000
1000
0000
1000
0000
0010
1000
0010
0000
,
1000
0000
1000
0000
0001
0010
0001
0000
0010
0000
0010
0000
1000
0001
1000
0000
,
0010
0000
0010
0000
0001
0010
0001
0000
1000
0000
1000
0000
0010
1000
0010
0000
,
2301
3000
2010
3000
2100
3000
2010
3000
,
0001
0001
0001
0001
1000
0100
1000
0100
1000
0100
1000
0100
0001
0001
1000
0100
,
0010
0020
0000
0130
0020
0000
0000
0130
,
0001
0010
0001
0010
0100
0000
1000
0000
0020
0000
0000
0000
0000
0000
1030
0000
,
0100
0000
0010
0000
0001
0000
0001
0000
0010
0100
0010
0000
0100
0000
1000
0000
,
1000
0100
0010
0100
0002
0000
0000
0000
,
1003
0100
0010
0001
0010
0100
1000
0100
1000
0100
0010
0001
0010
0100
1000
0100
,
0010
0100
1000
0100
0010
0100
0010
0100
1000
0100
0010
0100
0002
0000
0000
0000
,
0203
0000
2300
0000
3200
0000
2300
0000
3200
0000
0302
0000
0013
0100
0020
0000
,
2030
3200
0320
0032
0023
0032
0023
0230
,
0302
0000
0000
0000
0000
0000
0000
0000
1003
0100
0010
0001
0100
0010
0001
0010
,
0100
0000
0000
1000
0000
0000
0010
0000
0000
0100
0000
0000
1000
0000
0100
0000
0010
0000
0001
0000
0010
0000
0100
0000
0010
0000
0000
0100
0000
0000
1000
0000
0000
0000
0000
0000
0002
0000
0000
0000
0000
0000
0000
0000
0000
0000
0000
0000
,
0023
0030
0020
0030
0200
0300
2000
3000
0002
0003
0200
0300
2000
3000
0200
0300
,
0002
0000
0000
0003
0000
0000
0020
0000
0000
0030
0000
0000
0200
0000
0000
0300
0000
0000
0020
0000
0000
0030
0000
0000
0002
0000
0000
0003
0000
0000
0000
0000
0000
0000
0000
0000
0001
0000
0010
0000
0001
0000
0010
0000
0100
0000
0010
0000
,
0100
0010
0001
0010
0100
0010
0100
0010
0001
0010
0100
0010
0100
1000
0100
0010
,
0001
0010
0100
1000
0100
0010
0100
0010
0001
0010
0100
1000
0100
0010
0100
1000
,
0001
0000
0010
0000
0100
0000
1000
0000
0000
0001
0000
0010
0000
0100
0000
1000
0000
0000
0001
0000
0010
0000
0100
0000
1000
0000
0000
0010
0000
0000
0001
0000
0000
1000
0000
0000
0100
0000
0000
1000
0000
0000
0001
0000
0000
0010
0000
0000
,
0100
0000
0000
1000
0000
0000
0100
0000
0000
0010
0000
0000
0100
0000
0000
1000
0000
0000
0100
0000
0000
0010
0000
0000
0001
0000
0010
0000
0100
0000
1000
0000
0100
0000
1000
0000
0001
0000
0010
0000
0100
0000
0010
0000
0001
0000
0010
0000
,
0100
0200
0300
1000
0100
0010
0100
1000
,
0010
0000
0000
0010
0100
0010
0100
0000
0000
0010
0000
0000
0100
0000
0000
1000
0000
0000
0100
0000
0000
0010
0000
0000
,
1000
0100
1000
0001
0010
0100
1000
0001
0010
0100
0010
0001
0010
0100
0010
0100
,
1000
1000
1000
1000
1000
0000
0000
0000
0100
0100
0100
0100
0100
0000
0000
0000
,
1000
0100
1000
0100
0010
0001
0010
0001
1000
0100
1000
0100
0010
0001
0010
0001
,
1000
0100
0010
0001
0001
0010
0100
1000
1000
0100
0010
0001
0001
0010
0100
1000
,
0010
0001
0010
0001
1000
0000
0010
0001
0010
0001
1000
0000
0010
0001
0010
0001
,
0020
0000
0000
0000
,
1030
0100
0010
0100
1000
0100
0010
0001
0010
0100
0010
0001
1000
0100
1000
0001
0010
0100
0010
0001
1000
0100
0010
0100
,
0010
0000
0000
0000
0001
0000
0000
0000
0010
0000
0000
0000
1000
0000
0000
0000
0100
0000
0000
0000
0001
0000
0000
0000
0010
0000
0000
0100
0000
0000
1000
0000
0000
0100
0000
0000
0010
0000
0000
0001
0000
0000
0010
0000
0000
0100
0000
0000
,
0010
0020
0030
0001
0010
0100
1000
1000
,
0010
0020
0030
0001
0010
0100
2000
3000
,
0200
0300
0010
0200
0000
0300
0100
1000
,
0020
0000
0030
0000
0002
0000
0003
0000
0002
0003
0100
0000
2000
0000
3000
0000
,
0200
0300
0000
0000
0000
0000
0200
0300
0000
0000
0000
0000
0200
0300
0000
0000
,
0100
0010
0001
0010
1000
0100
0010
0001
1000
0100
1000
0001
0010
0100
1000
0100
,
0010
0020
0030
0100
0100
0100
1000
1000
,
0002
0000
0000
0003
0020
0000
0032
0000
,
0023
0000
0030
0200
0000
0300
2000
0000
,
3002
0000
0000
0000
0000
0000
1003
1000
,
0200
0000
0300
0010
0000
0000
0010
0000
,
0002
0000
0000
0023
0000
0000
0130
0000
,
0100
0010
0100
1000
0100
0010
0001
1000
0100
0010
0100
1000
0001
0010
0100
0010
0001
1000
0100
0010
0100
0010
0100
1000
,
0100
0010
0001
0000
0010
0100
1000
0000
0010
0001
0010
0000
0100
1000
0100
0000
,
0010
0000
0000
0001
0000
0000
0010
0000
0000
0001
0000
0000
1000
0000
0000
0100
0000
0000
0010
0000
0000
0001
0000
0000
0010
0000
0001
0000
1000
0000
0100
0000
0010
0000
0100
0000
1000
0000
0100
0000
0010
0000
0100
0000
0010
0000
0001
0000
,
0010
0000
0000
0100
0000
0000
0010
0000
0000
0100
0000
0000
1000
0000
0000
0100
0000
0000
0010
0000
0000
0001
0000
0000
1000
0000
0100
0000
1000
0000
0001
0000
0010
0000
0100
0000
0010
0000
0001
0000
1000
0000
0100
0000
0010
0000
0100
0000
,
1000
0000
0000
1000
0100
0000
0000
1000
0100
0000
0000
0000
0001
0000
0000
0000
0010
0000
0000
0000
0100
0000
0000
0000
1000
0000
0000
0000
0100
0000
0000
0000
,
2000
0000
0000
3200
0000
0000
0320
0000
0032
0000
0000
0000
0000
0000
0000
0000
,
1003
0100
0010
0001
1000
0100
1000
0001
0010
0100
0010
0001
0010
0100
1000
0100
,
1000
0100
1000
0001
0010
0100
0010
0001
1000
0100
0010
0001
0010
0100
1000
0100
0010
0100
1000
0100
1000
0001
0010
0100
,
0001
0001
0010
0010
0100
0100
0001
0000
,
0010
0010
0000
0000
0100
0100
0000
0000
1000
1000
0000
1000
1000
0000
0000
0000
0100
0100
0000
0000
0010
0010
0000
0000
,
0002
0000
0000
0000
0000
0000
0013
0010
,
0002
0000
0000
0023
0000
0000
0230
0000
,
2300
0000
0000
0000
0000
0000
3100
1000
,
0020
0000
0000
0000
0000
0000
0130
0100
,
0001
0100
0100
0001
0100
0100
0001
0010
,
0001
0010
0001
0100
0010
0100
0001
0010
0100
0001
0010
0001
0100
1000
0010
0100
0010
1000
0100
0010
0100
1000
0100
0010
,
1000
0000
1000
0200
2300
3200
0320
0032
,
0013
0010
0100
0100
1000
1000
0010
0010
0001
0001
0100
0100
1000
1000
0010
0010
,
1000
0100
0010
0100
1000
0010
1000
0100
0010
0100
1000
0100
0010
0100
0010
0100
1000
0100
0010
0100
1000
0100
1000
0010
,
0100
0000
1000
0000
0100
0000
0010
0000
1000
0000
0100
0000
1000
0000
0010
0000
0100
0000
2000
0000
0000
3000
0000
0000
0010
0000
0100
0000
1000
0000
0010
0000
0100
0000
0010
0000
0100
0000
1000
0000
0100
0000
0020
0000
0000
0000
0030
0000
,
0001
0010
0100
0010
0001
0100
0010
0100
0010
0002
0000
0003
0100
0001
0010
0001
0100
0010
0100
0001
0010
0200
0000
0300
,
0010
0001
0010
0100
0010
0100
0010
0001
0010
0001
0010
0100
0010
0001
0010
0100
0010
0100
1000
0100
1000
0100
0010
0001
,
0010
0001
0010
0100
0010
0001
0010
0100
1000
0100
1000
0001
0010
0100
0010
0001
,
0010
0001
0010
0001
0100
0001
0100
0001
1000
0100
1000
0100
1000
0010
1000
0010
,
0001
0100
1000
0010
0001
0100
1000
0010
0001
0010
0100
1000
0001
0010
0100
1000
,
0001
0010
1000
0100
0001
0010
1000
0100
0001
1000
0010
0100
0001
1000
0010
0100
,
0002
0000
0000
0000
0000
0003
0002
0000
0000
0000
0000
0003
0002
0000
0000
0003
,
0001
0000
0010
0000
0100
0000
1000
0000
0100
0000
0010
0000
,
0010
0001
1000
0100
1000
0001
0010
0100
0010
0001
1000
0100
1000
0001
0010
0100
1000
0001
1000
0100
0010
0100
1000
0100
,
2002
0003
0002
0003
3002
0003
0002
0003
,
0102
0010
0100
1000
0100
0010
0100
1000
0100
0010
0100
1000
0100
0010
0100
1000
,
0213
1000
0001
0010
0001
1000
0010
0001
0010
1000
0001
0010
0001
1000
0010
0001
,
2310
0001
0010
0100
0010
0001
0010
0100
0010
0001
0010
0100
0010
0001
0010
0100
,
3012
0000
0010
0100
0010
0100
0010
0000
0010
1000
0010
1000
0010
1000
0010
0000
,
1023
0030
1000
0000
1000
0000
0020
0030
1000
0000
1000
0000
0002
0003
1000
0000
,
0020
0030
1000
0000
1000
0000
0200
0300
1000
0000
1000
0000
0200
0300
1000
0000
,
0100
0010
0001
1000
0100
1000
0001
0010
0100
0010
0001
1000
0100
1000
0100
0010
,
0001
1000
0100
1000
0001
0010
0100
0010
0100
1000
0100
0010
0001
1000
0100
0010
,
1200
0010
1000
0000
0010
1000
0010
0000
1000
0001
1000
0000
0010
0001
0010
0000
,
2301
0010
0001
0000
0100
0010
0100
0000
0001
0100
0001
0000
0010
0100
0010
0000
,
3021
0100
0001
0000
1000
0100
1000
0000
0001
1000
0001
0000
0100
0001
0100
0000
,
1032
0000
1000
0000
0100
0010
0100
0000
1000
0000
1000
0000
0100
0010
0100
0000
,
1103
1100
0000
0000
0000
0000
0000
0000
,
0000
0000
0000
0000
,
2002
0000
0000
0000
,
0000
0000
0000
0000
,
3113
0000
0000
0000
,
0000
0000
0000
0000
,
0000
0000
0000
0000
,
1002
0000
0000
0000
,
2103
0001
0010
0100
0001
0100
0001
0010
0100
0001
0100
0010
0001
0100
0001
0010
,
0100
0001
0100
0010
0100
0001
0100
0001
0010
0100
0001
0100
3021
0130
1000
0001
,
0120
1000
0001
0100
0001
1000
0001
0100
0001
1000
0100
0001
1000
0001
0100
1000
,
0001
1000
0001
0100
1000
0001
1000
0100
1000
0001
0100
1000
0132
1003
0010
0100
,
0012
1000
0010
1000
0100
1000
0010
0100
0010
1000
0100
0010
1000
0010
0100
1000
,
0010
0100
0010
1000
0100
0010
1000
0100
1000
0010
0100
1000
0010
1000
0100
0010
,
2103
3010
0100
2010
3100
0010
0010
0010
,
2100
0010
3100
0010
0100
0010
2100
0010
3100
0010
0100
0010
0100
0010
0100
0010
,
2001
0000
0001
0000
0100
0010
0100
0000
0010
0000
0010
0000
0001
0100
0001
0000
,
0010
0000
0010
0000
0100
0010
0100
0000
0001
0000
0001
0000
3210
0001
0010
0000
,
0321
0000
0001
0000
0100
1000
0100
0000
0001
0000
0001
0000
1000
0100
1000
0000
,
0001
0000
0001
0000
0100
0001
0100
0000
1000
0000
1000
0000
0231
1000
0001
0000
,
1320
0001
1000
0000
0001
0000
0001
0000
0100
1000
0100
0000
1000
0000
1000
0000
,
0001
0100
0001
0000
0100
0000
0100
0000
0001
1000
0001
0000
1000
0000
1000
0000
,
1032
0100
0013
0100
0010
0100
1002
0100
0013
0100
0010
0100
0010
0100
0010
0100
,
1002
0010
0103
0010
1000
0100
0012
0100
1003
0010
0100
0010
1000
0100
0010
0100
,
1002
0000
1000
0000
0100
0010
0100
0000
0010
0000
0010
0000
1000
0100
1000
0000
,
0100
0000
0100
0000
1000
0010
1000
0000
0100
0000
0100
0000
0010
1000
0010
0000
,
1203
0000
1000
0000
0001
1000
0001
0000
0010
0000
0010
0000
1000
0010
1000
0000
,
0321
0000
0001
0000
1000
0100
1000
0000
0100
0000
0100
0000
0001
1000
0001
0000
,
1030
0001
0100
0010
1000
0001
0010
0100
1000
0010
1000
0001
0100
0010
1000
0001
,
2000
3000
0100
0001
0100
0010
1000
0001
1000
0010
0100
0001
1000
0001
0100
0010
,
1000
0010
0100
0010
0100
0010
1000
0010
0100
0010
0100
0010
0100
0010
0100
0010
,
0200
0300
0000
0000
0020
0030
0000
0000
0002
0003
0000
0000
0020
0030
0000
0000
0200
0300
0000
0000
0020
0030
0000
0000
0002
0000
0000
0000
0023
0030
0000
0000
,
2001
0000
0001
0000
0010
0100
0010
0000
0100
0000
0100
0000
0001
0010
0001
0000
,
0010
0000
0010
0000
0001
0100
0001
0000
0010
0000
0010
0000
0100
0001
0100
0000
,
3021
0000
0001
0000
1000
0001
1000
0000
0100
0000
0100
0000
0001
0100
0001
0000
,
1230
0000
1000
0000
0001
0010
0001
0000
0010
0000
0010
0000
1000
0001
1000
0000
,
0301
1000
0010
0100
0001
1000
0010
1000
0001
0100
0010
1000
0001
0100
0001
1000
,
0010
0001
0010
0001
0100
0001
0100
0001
1000
0010
1000
0010
1000
0100
1000
0100
,
1001
1001
0000
0000
,
0110
0000
0000
0000
,
0002
0000
0000
0023
0000
0000
0230
0000
,
0000
2300
0000
0000
3200
0320
0230
0320
,
1031
1001
1001
0000
0000
0000
0000
0000
,
0220
0330
0000
0000
,
0100
0010
0100
0010
0100
0000
0000
0000
0100
0010
0100
0010
0100
0000
0000
0000
,
0100
0010
0100
0010
0100
0000
0200
0300
0000
0000
0200
0300
0000
0000
0000
0000
,
0021
0030
2001
3000
0201
0300
0021
0030
2001
3000
0201
0300
,
0021
0000
0030
0000
0000
0000
0000
0000
0000
0000
0000
0000
0011
0000
0000
0011
0000
0000
0022
0000
0000
0000
0000
0000
,
0000
0000
0000
0000
,
0033
0000
0000
0000
;
